ARRU





White Album TV-2
Белый Альбом (второй сезон)[01-13 из 13][BD-Rip][HWP]   Bookmark


Скачать вход / регистрация
Тема на форуме Обсудить аниме (комментариев: 40)
Обсуждение раздачи (комментариев: 6)
ОписаниеWhite Album TV-2 | Белый Альбом (второй сезон)[01-13 из 13][BD-Rip][HWP]
Оригинальное название: WHITE ALBUM 後期
Английское название: White Album 2
Русское название: Белый Альбом (второй сезон)
Страна: Япония
Год выпуска : 2009
Жанр: романтика, драма
Категория: TV
Количество эпизодов: 13 эпизодов
Продолжительность: 25 минут
Студия:
Режиссёр: Ёсида Тайдзо
Сценарий: Сато Хироаки

Описание:
Бедный студент Тоя Фудзи крепко запутался. Его девушка Юки Морикава теперь известная певица и признанный «идол» компании Огата – а значит, разница в общественном статусе все растет. Рина Огата, первая звезда компании, искренне рада за подругу, в успех которой сама вложила немало сил. Рина и сейчас готова помочь Юки добрым словом или советом, но… она устроена так, что может быть только первой. Увы, соперничество неизбежно разгорается не только на сцене, но и в личной жизни. Яёй Синодзука, менеджер Юки, уверена, что подопечная может превзойти любую соперницу - если освободится от отношений с каким-то неудачником. А в этом деле для холодной красотки Яёй все средства хороши…

Такова реальная жизнь, проблемы которой решаются не Лунной Призмой или взмахами катаны, а лишь каждодневной работой над собой, правильным выбором цели, расстановкой приоритетов. Готов ли Тоя жить «не по лжи», как настоящий мужчина, или предпочтет плыть по течению, убегая от проблем, уступая минутным желаниям и забывая о главном? Все это покажут новые страницы «Белого альбома»!

© Hollow

Названия эпизодов:

01. I've never been able to tune properly. I can't stop thinking that it could sound better
02. The thing you can't find ends up destroying your surroundings. Because you can't find it, there's nothing that can be done
03. Thinking back to when one was young, there are things so embarrassing it makes one writhe in agony, compared to that...
04. There are lies one wants to be exposed. There are also truths one does not want to believe in. In my case, there is one of each
05. Don't bugs have it too easy? They shut themselves away in their shells, and yet they're claustrophobic
06. They usually say you move on to the next when you're bored with what you have. Although, I usually seem to be bored well before moving on
07. Love is not rational. The lovers who said this were poets, critics, and philosophers
08. I want to return to the fork in the road. I should have gone right instead. I've regretted every second since then
09. Worried you're not a good speaker? Try talking with your eyes. It'll make you want to talk in no time
10. We hope to catch colds in order to be nursed and fed. We don't even imagine the pain we're about to endure
11. Night does nothing for you. The sun is what makes things fade
12. They are to Blame. I'm not to Blame. Only They are to Blame
13. We Are Sitting Together, Throughout the Night, Without Moving


Источник рипа: BD-Rip [Coalgirls]
Автор рипа\энкод: Renmei Rei
Тип видео: Без хардсаба
Контейнер: AVI
Видео: XviD (Build 64) | 720 x 404 | 23,976 fps | ~ 1100 - 1500 kbps ;

Аудио:
1. RU - VO: AC-3 | 48.0 KHz | stereo | 256 Kbps;
2. JP: AC-3 | 48.0 KHz | stereo | 256 Kbps

Субтитры: Ru - soft [SRT, SSA][Witwood]
Перевод: Witwood
Озвучивание: JeFerSon
Тайминг: Beonikol

MediaInfo: - показать
Общее
Полное имя                               : D:\White Album [TV-2][01-13 of 13][BD-rip][HWP]\White.Album.TV-2.[01.of.13].[JeferSon.&.AnimeReactor.RU].[BD-Rip].avi
Формат                                   : AVI
Формат/Информация                        : Audio Video Interleave
Размер файла                             : 325 Мбайт
Продолжительность                        : 24 м.
Общий поток                              : 1846 Кбит/сек
Программа кодирования                    : VirtualDubModRus 1.5.10.2 (build 2542/release)
Библиотека кодирования                   : VirtualDubMod build 2542/release

Видео
Идентификатор                            : 0
Формат                                   : MPEG-4 Visual
Профиль формата                          : Advanced Simple@L5
Параметр BVOP формата                    : 2
Параметр QPel формата                    : Нет
Параметр GMC формата                     : Без точки перехода
Параметр матрицы формата                 : Default (H.263)
Идентификатор кодека                     : XVID
Идентификатор кодека/Подсказка           : XviD
Продолжительность                        : 24 м.
Битрейт                                  : 1320 Кбит/сек
Ширина                                   : 720 пикселей
Высота                                   : 404 пикселя
Соотношение сторон                       : 16:9
Частота кадров                           : 23,976 кадра/сек
Цветовое пространство                    : YUV
Субдискретизация насыщенности            : 4:2:0
Битовая глубина                          : 8 бит
Тип развёртки                            : Прогрессивная
Метод сжатия                             : С потерями
Бит/(Пиксели*Кадры)                      : 0.189
Размер потока                            : 232 Мбайт (71%)
Библиотека кодирования                   : XviD 64

Аудио #1
Идентификатор                            : 1
Формат                                   : AC-3
Формат/Информация                        : Audio Coding 3
Расширение режима                        : CM (complete main)
Идентификатор кодека                     : 2000
Продолжительность                        : 24 м.
Вид битрейта                             : Постоянный
Битрейт                                  : 256 Кбит/сек
Каналы                                   : 2 канала
Расположение каналов                     : Front: L R
Частота                                  : 48,0 КГц
Битовая глубина                          : 16 бит
Метод сжатия                             : С потерями
Размер потока                            : 45,0 Мбайт (14%)
Выравнивание                             : Разделение по промежуткам
Продолжительность промежутка             : 42  мс. (1,00 видеокадр)
Время предзагрузки промежутка            : 500  мс.
Заголовок                                : Russian [JeferSon]

Аудио #2
Идентификатор                            : 2
Формат                                   : AC-3
Формат/Информация                        : Audio Coding 3
Расширение режима                        : CM (complete main)
Идентификатор кодека                     : 2000
Продолжительность                        : 24 м.
Вид битрейта                             : Постоянный
Битрейт                                  : 256 Кбит/сек
Каналы                                   : 2 канала
Расположение каналов                     : Front: L R
Частота                                  : 48,0 КГц
Битовая глубина                          : 16 бит
Метод сжатия                             : С потерями
Размер потока                            : 45,0 Мбайт (14%)
Выравнивание                             : Разделение по промежуткам
Продолжительность промежутка             : 42  мс. (1,00 видеокадр)
Время предзагрузки промежутка            : 500  мс.
Заголовок                                : Japanese [Original]

Скриншоты: - показать


Дядя Шарик
Релиз от
источник
ARRU & JeFerSon & RenmeiRei & REBUILD ARRU
А вы ничего не забыли?
наверх

Последние поступления