ARRU





БЕК: Восточная Ударная Группа
BECK: Mongolian Chop Squad TV [01 - 26 из 26][BD-Rip][HWP]   Bookmark


Скачать вход / регистрация
Тема на форуме Обсудить аниме (комментариев: 493)
Обсуждение раздачи (комментариев: 38)
Смотреть онлайн
ОписаниеБЕК: Восточная Ударная Группа | BECK: Mongolian Chop Squad TV [01 - 26 из 26][BD-Rip][HWP]
Английское название: Beck - Mongorian Chop Squad
Русское название: Бек: Восточная Ударная Группа

Страна: Япония
Трансляция: c 07.10.2004 по 31.03.2005
Жанр: комедия, драма, романтика, музыкальный
Количество эпизодов ТВ: 26
Продолжительность: 25 мин

Режиссёр:  Кобаяси Осаму
Автор оригинала: Сакуйси Харолд

Описание:
В начале была Песня – так верят многие народы, и не зря музыка все так же объединяет нас спустя тысячелетия после начала писаной и неписаной истории. Бек – это аниме про молодых людей, ищущих свой жизненный путь, и про уже состоявшихся людей, которым музыка помогла и помогает в жизни. Бек – это аниме про универсальный язык, на котором могут разговаривать разные поколения. А еще это аниме про современное общество, в котором всплески таланта и искренние порывы души рано или поздно становятся частью глобальной индустрии развлечений. Можно спорить – хорошо это или плохо, но таков мир, в котором мы живем.

А вообще-то, Бек – это рассказ о простом японском парне, 14-летнем Юкио Танаке, который волею судьбы встретился с молодым гитаристом Рюскэ Минами и, благодаря таланту, силе духа, простому и открытому характеру, нашел свое место в жизни, обрел друзей и встретил любовь. Это рассказ о поиске путей самовыражения, на которых искренность и честность приносят радость, а злоба и лицемерие заводят в тупик. А еще это рассказ о встрече непростых людей, которые сумели создать и сохранить рок-группу, то самое целое, которое куда больше суммы слагаемых. Именно так и рождается настоящая музыка. Именно так вышло одно из лучших музыкальных аниме всех времен!

© Hollow

Названия эпизодов:
01. The Scene of a Fourteen Year Old
02. Live 2: Live House
03. Moon on the Water
04. Strum the Guitar
05. Love is Painful
06. Hamatou and Jaguar
07. Lucille
08. Announcement within the school
09. Night before the Live
10. FACE
11. Summer holiday
12. Secret Live
13. Ciel Bleu
14. Dream
15. Back to School
16. Indies
17. Three Days
18. Leon Sykes
19. Blues
20. Greatful Sound
21. Write Music
22. Night Before the Festival
23. Festival
24. Third Stage
25. Slip Out
26. America


Исходник рипа: BDRip [TheChaosLegion & joseole99]
Автор рипа: Renmei Rei
Тип видео: Без хардсаба
Контейнер: avi
Видео: XviD (Build 64) | 720 x 540 pixels | 23,976 fps | ~1800 - 2000 kbps;


Аудио:
1. RU - 2VO: AC-3 | 48.0 KHz | stereo | 196 Kbps - MaxDamage & Persona99
2. RU - VO: MP3 | 48.0 KHz | stereo | 256 Kbps - Gits
3. JP: AC-3 | 48.0 KHz | stereo | 256 Kbps - Original

Cубтитры: RU - soft [BECK Sub Band]
Перевод: BECK Sub Band

MediaInfo: - показать

Общее
Полное имя                               : D:\BECK\BECK .TV.[25.of.26].Slip.Out.[BD-Rip].avi
Формат                                   : AVI
Формат/Информация                        : Audio Video Interleave
Размер файла                             : 441 Мбайт
Продолжительность                        : 24 м.
Общий поток                              : 2530 Кбит/сек
Программа кодирования                    : VirtualDubModRus 1.5.10.2 (build 2542/release)
Библиотека кодирования                   : VirtualDubMod build 2542/release

Видео
Идентификатор                            : 0
Формат                                   : MPEG-4 Visual
Профиль формата                          : Advanced Simple@L5
Параметр BVOP формата                    : 2
Параметр QPel формата                    : Нет
Параметр GMC формата                     : Без точки перехода
Параметр матрицы формата                 : Default (H.263)
Идентификатор кодека                     : XVID
Идентификатор кодека/Подсказка           : XviD
Продолжительность                        : 24 м.
Битрейт                                  : 1807 Кбит/сек
Ширина                                   : 720 пикселей
Высота                                   : 540 пикселей
Соотношение сторон                       : 4:3
Частота кадров                           : 23,976 кадра/сек
Цветовое пространство                    : YUV
Субдискретизация насыщенности            : 4:2:0
Битовая глубина                          : 8 бит
Тип развёртки                            : Прогрессивная
Метод сжатия                             : С потерями
Бит/(Пиксели*Кадры)                      : 0.194
Размер потока                            : 315 Мбайт (71%)
Библиотека кодирования                   : XviD 64

Аудио #1
Идентификатор                            : 1
Формат                                   : AC-3
Формат/Информация                        : Audio Coding 3
Расширение режима                        : CM (complete main)
Идентификатор кодека                     : 2000
Продолжительность                        : 24 м.
Вид битрейта                             : Постоянный
Битрейт                                  : 192 Кбит/сек
Каналы                                   : 2 канала
Расположение каналов                     : Front: L R
Частота                                  : 48,0 КГц
Битовая глубина                          : 16 бит
Метод сжатия                             : С потерями
Размер потока                            : 33,4 Мбайт (8%)
Выравнивание                             : Разделение по промежуткам
Продолжительность промежутка             : 42  мс. (1,00 видеокадр)
Время предзагрузки промежутка            : 500  мс.
Заголовок                                : Russian [MaxDamage & Persona99]

Аудио #2
Идентификатор                            : 2
Формат                                   : MPEG Audio
Версия формата                           : Version 1
Профиль формата                          : Layer 3
Режим                                    : Joint stereo
Идентификатор кодека                     : 55
Идентификатор кодека/Подсказка           : MP3
Продолжительность                        : 24 м.
Вид битрейта                             : Постоянный
Битрейт                                  : 256 Кбит/сек
Каналы                                   : 2 канала
Частота                                  : 48,0 КГц
Метод сжатия                             : С потерями
Размер потока                            : 44,6 Мбайт (10%)
Выравнивание                             : Соединение по промежуткам
Продолжительность промежутка             : 42  мс. (1,00 видеокадр)
Время предзагрузки промежутка            : 504  мс.
Заголовок                                : Russian [Gits]

Аудио #3
Идентификатор                            : 3
Формат                                   : AC-3
Формат/Информация                        : Audio Coding 3
Расширение режима                        : CM (complete main)
Идентификатор кодека                     : 2000
Продолжительность                        : 24 м.
Вид битрейта                             : Постоянный
Битрейт                                  : 256 Кбит/сек
Каналы                                   : 2 канала
Расположение каналов                     : Front: L R
Частота                                  : 48,0 КГц
Битовая глубина                          : 16 бит
Метод сжатия                             : С потерями
Размер потока                            : 44,6 Мбайт (10%)
Выравнивание                             : Разделение по промежуткам
Продолжительность промежутка             : 42  мс. (1,00 видеокадр)
Время предзагрузки промежутка            : 500  мс.
Заголовок                                : Japanese [Original]


Скриншоты: - показать




Дядя Шарик
Релиз от
источник
ARRU & Get Smart & RenmeiRei & REBUILD ARRU   &   Gits
А вы ничего не забыли?
наверх

Последние поступления