ARRU





Soukyuu no Fafner: Dead Aggressor - Heaven and Earth
Небесный Фафнир: Мертвый Агрессор - Рай и Земля (фильм)[BD-Rip][HWP]   Bookmark


Скачать вход / регистрация
Тема на форуме Обсудить фильм (комментариев: 6)
Обсуждение раздачи (комментариев: 2)
ОписаниеSoukyuu no Fafner: Dead Aggressor - Heaven and Earth | Небесный Фафнир: Мертвый Агрессор - Рай и Земля (фильм)[BD-Rip][HWP]
Оригинальное название: Soukyuu no Fafner: Dead Aggressor - Heaven and Earth
Английское название: Soukyuu no Fafner: Dead Aggressor - Heaven and Earth
Русское название: Небесный Фафнир: Мертвый Агрессор - Рай и Земля(фильм)
Страна: Япония
Год выпуска : 2010
Жанр: приключения, фантастика
Категория: Movie
Количество эпизодов: 1
Продолжительность: 1 час 32 минуты 45 секунд
Студия: Xebec
Режиссёр: Судзуки Тосимаса
Сценарий: Убуката То


Описание:
Кажется, что на острове наступили мирные времена. Каждый занимается обычными делами. Однако не все так хорошо. Из-за роста нового ядра острова, его защитные системы слабеют, а экосистема умирает. А тут еще Фестум нападает, и появляется таинственная личность Курусу Мисао. Нашим героям с новым пополнением придется сражаться, чтобы защитить свой дом.


Источник рипа: BD-Rip [QTS]
Автор рипа\энкод: Kirillp
Тип видео: Без хардсаба
Контейнер: AVI
Видео: XviD (Build 64) | 720 x 404 | 23,976 fps | ~1800 kbps ;

Аудио:
1. RU - VO: AC-3 | 48.0 KHz | stereo | 256 Kbps;
2. JP: AC-3 | 48.0 KHz | stereo | 256 Kbps

Субтитры: Ru - soft [SRT]
Перевод: AlexVector
Озвучивание: Mifsnaiper

Идея Проекта: hiphop
Отдельное спасибо: DJATOM

MediaInfo: - показать
General
Complete name                            : F:\Soukyuu_no_Fafner_Dead_Aggressor_HEAVEN_AND_EARTH_[Movie][BDrip_HWP]\Soukyuu_no_Fafner_Dead_Aggressor_HEAVEN_AND_EARTH_[Movie]_[MifSnaiper_&_animereactor_ru].avi
Format                                   : AVI
Format/Info                              : Audio Video Interleave
File size                                : 1.51 GiB
Duration                                 : 1h 32mn
Overall bit rate                         : 2 326 Kbps
Writing application                      : VirtualDubModRus 1.5.10.2 (build 2542/release)
Writing library                          : VirtualDubMod build 2542/release

Video
ID                                       : 0
Format                                   : MPEG-4 Visual
Format profile                           : Advanced Simple@L5
Format settings, BVOP                    : 2
Format settings, QPel                    : No
Format settings, GMC                     : No warppoints
Format settings, Matrix                  : Default (H.263)
Codec ID                                 : XVID
Codec ID/Hint                            : XviD
Duration                                 : 1h 32mn
Bit rate                                 : 1 800 Kbps
Width                                    : 720 pixels
Height                                   : 404 pixels
Display aspect ratio                     : 16:9
Frame rate                               : 23.976 fps
Color space                              : YUV
Chroma subsampling                       : 4:2:0
Bit depth                                : 8 bits
Scan type                                : Progressive
Compression mode                         : Lossy
Bits/(Pixel*Frame)                       : 0.258
Stream size                              : 1.17 GiB (77%)
Writing library                          : XviD 64

Audio #1
ID                                       : 1
Format                                   : AC-3
Format/Info                              : Audio Coding 3
Mode extension                           : CM (complete main)
Codec ID                                 : 2000
Duration                                 : 1h 32mn
Bit rate mode                            : Constant
Bit rate                                 : 256 Kbps
Channel(s)                               : 2 channels
Channel positions                        : Front: L R
Sampling rate                            : 48.0 KHz
Bit depth                                : 16 bits
Compression mode                         : Lossy
Stream size                              : 170 MiB (11%)
Alignment                                : Split accross interleaves
Interleave, duration                     : 42 ms (1.00 video frame)
Interleave, preload duration             : 500 ms
Title                                    : Russian_[MifSnaiper]

Audio #2
ID                                       : 2
Format                                   : AC-3
Format/Info                              : Audio Coding 3
Mode extension                           : CM (complete main)
Codec ID                                 : 2000
Duration                                 : 1h 32mn
Bit rate mode                            : Constant
Bit rate                                 : 256 Kbps
Channel(s)                               : 2 channels
Channel positions                        : Front: L R
Sampling rate                            : 48.0 KHz
Bit depth                                : 16 bits
Compression mode                         : Lossy
Stream size                              : 170 MiB (11%)
Alignment                                : Split accross interleaves
Interleave, duration                     : 42 ms (1.00 video frame)
Interleave, preload duration             : 500 ms
Title                                    : Original

Скриншоты: - показать


Дядя Шарик
Релиз от
источник
ARRU & MifSnaiper & SeM & REBUILD ARRU
А вы ничего не забыли?
наверх

Последние поступления