ARRU





Tokyo Underground
Подземелье Токио [01 - 26 из 26][DVD-Rip]   Bookmark


Скачать вход / регистрация
Тема на форуме Обсудить аниме (комментариев: 12)
Обсуждение раздачи (комментариев: 18)
ОписаниеTokyo Underground | Подземелье Токио [01 - 26 из 26][DVD-Rip]
Оригинальное название: 東京アンダーグラウンド
Английское название: Tokyo Underground
Русское название: Подземелье Токио

Страна: Япония
Период трансляции: c 02.04.2002 по 24.09.2002
Жанр: приключения, фэнтези, романтика, комедия

Категория: TV
Количество эпизодов: 26
Продолжительность: 24 мин.
Студия:
Режиссёр: Датэ Хаято
Автор оригинала: Ураку Акинобу

Описание:
В некоторой реальности в тридесятой столице Японии жил - не тужил боевой парниша Сетсуна, и учил его деда гадостям всяким бойцовским, прямо жизни ему от этих тренировок никакой не было. Но как-то раз, вернувшись со школы, обнаружил он в доме у себя двух незнакомых существ женского роду, одно постарше да позлее, а другое помоложе да посимпатичнее. Вот тут-то и начались приключения...

Рассказали ему гостьи, что пришли они из царства подземного, что сбежали от сил темных, да укрыться бы им надобно... Ну, Сетсуна - он на то и Сетсуна, чтобы согласиться. И вот первая нападка, страшный чародей напал на их дом, из рук своих он огонь выпускал, да взглядом траву поджигал, вот и попалась старшая блондиночка в ловушку. Ну, Сетсуна не будь дурак в защиту кинулся, говорит, мол, ах ты такой-сякой, да я, да у меня, да я вообще такой крутой, а ты тут... ничего не сказал чародеюшка, только кивнул довольно да проткнул паренька коготками своими стальными. В общем тут бы и сказке конец, да вот беда - вторая серия ещё не кончилось, а ведь ещё надо на 24 всё это безобразие растянуть. смекнула тут что к чему младшая девица, да и оживила добра молодца. Ну вот он взял свой меч-кладенец деревянный, дунул-плюнул, огонек потушил, да врага уложил... А вот тут такое началось...

Несмотря на то, что с первых серий сериал кажется довольно дурацким, он постепенно выправляется в серьезную сторону, он сделан в очень оригинальном стиле с нестандартными эффектами, в сериала очень много боев, но не таких тупых как "плохой лупит-лупит хорошего, а тот его на последнем дыхании по слабому месту пальчиком тык - тот и скопытился", нет, бои на самом деле интересные и довольно продолжительные, исход не всегда предсказуем. Кстати, очень многие "предсказуемые" линии имеют моду ломаться в решающий момент и перетекать во что-то такое нестандартное. Музыкальное оформление сериала довольно хорошо сделано, мне понравились очень вступительные песни и общее сопровождение.

В общем это - замечательное аниме о любви, предательстве, мече и магии...

Вердикт: Смотреть всем, кто хочет просто отдохнуть. Сериал затягивает, но не заставляет ни о чем задумываться.
© LazyZefiris

Названия эпизодов:
01. Surface - The Destined Encounter
02. Spiritual Summoning - Shrine Maiden of Life
03. The Awakening - When the Wind moves
04. Full Moon - Ruri"s feelings
05. Confrontation - The Two Water Controllers
06. Training - Each One"s Decisions
07. Rushing In - To the Underground!
08. Suupei - The Trap Hidden in the Dark
09. Spirit Gun - In Order to Fight Together
10. Counter Attack - Again with Water User
11. Battle to the Death - Beyond Hatred
12. Rebellion - Escape to the Light
13. Promise - The Wish in the Ribbon
14. Pursuit - The Minions of the Tower Gate
15. Attack - Broken Bonds
16. Attack - Unforgotten Melody
17. Gradual Attack - For the Sake of the Smile
18. Meet Again - Tear Wiping Wind
19. Impatience - Thoughts That Do Not Reach
20. Assassin - The Trap of the Magnetic User
21. Slums - Town of rebels
22. Concentration - Invitation to killing field
23. Fierce battle - Aiming for the top
24. Reason - Flame of betrayal
25. Collapse - An Incurable Heart
26. To the Light - Let our Thoughts Become One


Источник рипа: DVD
Контейнер: mkv
Видео:  AVC |  29.970 fps | ~ 1600 kbps | 640 x 480 pixels;
MediaInfo - показать
General
Unique ID                        : 172595207285692608102706779832936049903 (0x81D8A0B74C97FF20BF370B9616682CEF)
Complete name                    : F:\Tokyo_Underground _[01_of_26]_[ru_jp]_[MifSnaiper_&_AnimeReactor_RU].mkv
Format                           : Matroska
File size                        : 339 MiB
Duration                         : 22mn 40s
Overall bit rate                 : 2 089 Kbps
Encoded date                     : UTC 2011-09-16 17:20:29
Writing application              : mkvmerge v3.3.0 ('Language' built on Mar 24 2010 14:59:24
Writing library                  : libebml v0.8.0 + libmatroska v0.9.0


ID                               : 1
Format                           : AVC
Format/Info                      : Advanced Video Codec
Format profile                   : High@L5.1
Format settings, CABAC           : Yes
Format settings, ReFrames        : 8 frames
Codec ID                         : V_MPEG4/ISO/AVC
Duration                         : 22mn 40s
Bit rate                         : 1 664 Kbps
Nominal bit rate                 : 2 076 Kbps
Width                            : 640 pixels
Height                           : 480 pixels
Display aspect ratio             : 4:3
Frame rate                       : 29.970 fps
Color space                      : YUV
Chroma subsampling               : 4:2:0
Bit depth                        : 8 bits
Scan type                        : Progressive
Bits/(Pixel*Frame)               : 0.181
Stream size                      : 270 MiB (80%)
Writing library                  : x264 core 57 svn-709C
Encoding settings                : cabac=1 / ref=5 / deblock=1:-1:-1 / analyse=0x3:0x133 / me=umh / fpel_cmp=sad / subme=7 / me-prepass=0 / brdo=1 / mixed_ref=1 / me_range=16 / chroma_me=1 / trellis=1 / 8x8dct=1 / cqm=0 / deadzone=21,11 / chroma_qp_offset=0 / threads=1 / nr=0 / decimate=0 / mbaff=0 / bframes=2 / b_pyramid=1 / b_adapt=1 / b_bias=0 / direct=3 / wpredb=1 / bime=1 / keyint=250 / keyint_min=25 / scenecut=40 / rc=2pass / bitrate=2076 / ratetol=1.0 / rceq='blurCplx^(1-qComp)' / qcomp=0.60 / qpmin=10 / qpmax=51 / qpstep=4 / cplxblur=20.0 / qblur=0.5 / ip_ratio=1.40 / pb_ratio=1.30


Audio #1
ID                               : 2
Format                           : AC-3
Format/Info                      : Audio Coding 3
Mode extension                   : CM (complete main)
Codec ID                         : A_AC3
Duration                         : 22mn 40s
Bit rate mode                    : Constant
Bit rate                         : 192 Kbps
Channel(s)                       : 2 channels
Channel positions                : Front: L R
Sampling rate                    : 48.0 KHz
Bit depth                        : 16 bits
Compression mode                 : Lossy
Stream size                      : 31.1 MiB (9%)
Title                            : MIfSnaiper
Language                         : Russian

Audio #2
ID                               : 3
Format                           : AC-3
Format/Info                      : Audio Coding 3
Format profile                   : Dolby Digital
Mode extension                   : CM (complete main)
Codec ID                         : A_AC3
Duration                         : 22mn 40s
Bit rate mode                    : Constant
Bit rate                         : 192 Kbps
Channel(s)                       : 2 channels
Channel positions                : Front: L R
Sampling rate                    : 48.0 KHz
Bit depth                        : 16 bits
Compression mode                 : Lossy
Stream size                      : 31.1 MiB (9%)
Title                            : Orig
Language                         : Japanese


Text
ID                               : 4
Format                           : UTF-8
Codec ID                         : S_TEXT/UTF8
Codec ID/Info                    : UTF-8 Plain Text
Title                            : Rus
Language                         : Russian


Аудио:
1. RU - VO | AC-3 | stereo | 48 KHz | 192 kbps ;
2. JP -  AC-3 | stereo | 48 KHz | 192 kbps

Субтитры: RU - soft

Перевод: Mr.NeGaTiVe & Shelest
Ретайминг субтитров  DJATOM
Озвучивание: MifSnaiper
Тайминг: MifSnaiper

Скриншоты: - показать


Дядя Шарик
Релиз от
источник
ARRU & MifSnaiper & SeM
А вы ничего не забыли?
наверх

Последние поступления