ARRU





Kurau Phantom Memory
Курау: Призрак воспоминаний [01-24 из 24][DVD-Rip][HWP]   Bookmark


Скачать вход / регистрация
Тема на форуме Обсудить аниме (комментариев: 1)
Обсуждение раздачи (комментариев: 1)
ОписаниеKurau Phantom Memory | Курау: Призрак воспоминаний [01-24 из 24][DVD-Rip][HWP]
Оригинальное название: クラウ ファントムメモリー
Английское название: Kurau Phantom Memory
Русское название: Курау: Призрак воспоминаний
Страна: Япония
Год выпуска : 2004 год
Жанр: приключения, фантастика, меха, драма
Категория: TV
Количество эпизодов: 24 эпизода
Продолжительность: 25 минут
Студия: BONES
Режиссёр: Ириэ Ясухиро
Сценарий: Ёсинага Ая

Описание:
В ХХ-м веке человечество успешно осваивает Луну. Именно там располагается научно-исследовательский институт, занятый поисками источников энергии следующего поколения.
В свой двенадцатый день рождения Курау, единственная дочь доктора Амами, упрашивает отца взять её с собой на работу. Во время рядового эксперимента происходит несчастный случай – и в тело девочки вселяется загадочный Ринакс.
Курау обретает особые способности, да и физически она становится сильнее обычного человека. При этом она остаётся дочерью доктора Амами и не может покинуть «чужое» тело. Кроме того, Ринаксы могут жить только «парами», и приходится ждать, пока не воплотится «половинка» Курау...
Несмотря на фантастичность изображённых событий, новые технологии и сверхъестественные явления, этот сериал посвящён простым и понятным чувствам: любовь родителя и ребёнка, дружба и доверие близких людей. Курау и её «половинка» обречены на постоянное бегство, и тайна Ринаксов становится смертельно опасной для всех, кто в неё посвящён. Однако не технологии и не сила – только любовь и доброта способны спасти этот мир.
© Расселл Д. Джонс

Названия эпизодов:
01. Toward the Vast World...
02. A Good Word
03. Manhuntersrnoumonotachi
04. Passing Through the Night
05. Lost Child
06. Shining Rain
07. A New Way of Life
08. Another Christmas
09. The Town Where the Angels Disappeared
10. Sleeping Beauty
11. The Voice That Calls You
12. I'm Here Now
13. Something I Must Protect
14. Yesterday Today Tomorrow
15. Anxiety of the Swallowtail Butterfly
16. The Gravestones On the Hill
17. In the Mist
18. The Visitor
19. Each Path
20. Open the Window
21. The Frozen River
22. Shine in the Darkness
23. The Light at the End
24. Before the Goodbye



Контейнер: avi
Источник рипа: DVD-Rip
Автор рипа\энкод: Renmei Rei
Тип видео: Без хардсаба
Видео: XviD (Build 64) | 720 x 540 pixels | 23.98 fps | ~ 1700 - 2000 Kbps;

Аудио:
1. RU - VO: AC-3 | 256 Kbps | 48000Hz | stereo;
2. JP: AC-3 | 224 Kbps | 48000Hz | stereo

Субтитры: RU - soft [RoStudio][SRT]
Перевод: RoStudio
Озвучивание: Е. Лурье

MediaInfo: - показать
General
Complete name                            : D:\Kurau_TV [HWP]\Kurau_TV_[01_of_24]_[ru_jp]_[Animereactor_ru].avi
Format                                   : AVI
Format/Info                              : Audio Video Interleave
File size                                : 396 MiB
Duration                                 : 23mn 26s
Overall bit rate                         : 2 361 Kbps
Writing application                      : VirtualDubModRus 1.5.10.2 (build 2542/release)
Writing library                          : VirtualDubMod build 2542/release

Video
ID                                       : 0
Format                                   : MPEG-4 Visual
Format profile                           : Advanced Simple@L5
Format settings, BVOP                    : 2
Format settings, QPel                    : No
Format settings, GMC                     : No warppoints
Format settings, Matrix                  : Default (H.263)
Codec ID                                 : XVID
Codec ID/Hint                            : XviD
Duration                                 : 23mn 26s
Bit rate                                 : 1 867 Kbps
Width                                    : 720 pixels
Height                                   : 540 pixels
Display aspect ratio                     : 4:3
Frame rate                               : 23.976 fps
Color space                              : YUV
Chroma subsampling                       : 4:2:0
Bit depth                                : 8 bits
Scan type                                : Progressive
Compression mode                         : Lossy
Bits/(Pixel*Frame)                       : 0.200
Stream size                              : 313 MiB (79%)
Writing library                          : XviD 64

Audio #1
ID                                       : 1
Format                                   : AC-3
Format/Info                              : Audio Coding 3
Mode extension                           : CM (complete main)
Codec ID                                 : 2000
Duration                                 : 23mn 26s
Bit rate mode                            : Constant
Bit rate                                 : 256 Kbps
Channel(s)                               : 2 channels
Channel positions                        : Front: L R
Sampling rate                            : 48.0 KHz
Bit depth                                : 16 bits
Compression mode                         : Lossy
Stream size                              : 42.9 MiB (11%)
Alignment                                : Split accross interleaves
Interleave, duration                     : 42 ms (1.00 video frame)
Interleave, preload duration             : 500 ms
Title                                    : Russian [Е. Лурье]

Audio #2
ID                                       : 2
Format                                   : AC-3
Format/Info                              : Audio Coding 3
Mode extension                           : CM (complete main)
Codec ID                                 : 2000
Duration                                 : 23mn 26s
Bit rate mode                            : Constant
Bit rate                                 : 224 Kbps
Channel(s)                               : 2 channels
Channel positions                        : Front: L R
Sampling rate                            : 48.0 KHz
Bit depth                                : 16 bits
Compression mode                         : Lossy
Stream size                              : 37.6 MiB (9%)
Alignment                                : Split accross interleaves
Interleave, duration                     : 42 ms (1.00 video frame)
Interleave, preload duration             : 500 ms
Title                                    : Original [Japanese]

Скриншоты: - показать


Дядя Шарик
Релиз от
источник
ARRU & RenmeiRei & REBUILD ARRU
А вы ничего не забыли?
наверх

Последние поступления