ARRU





Nodame Cantabile TV-1
Нодамэ Кантабиле (первый сезон)[01-23 из 23 + special][DVD-Rip][HWP]   Bookmark


Скачать вход / регистрация
Тема на форуме Обсудить аниме (комментариев: 89)
Обсуждение раздачи (комментариев: 183)
ОписаниеNodame Cantabile TV-1 | Нодамэ Кантабиле (первый сезон)[01-23 из 23 + special][DVD-Rip][HWP]
Оригинальное название: のだめカンタービレ
Английское название: Nodame Cantabile
Русское название: Нодамэ Кантабиле
Страна: Япония
Период трансляции: c 12.01.2007 по 29.06.2007
Жанр: комедия, романтика, повседневность, сёдзё
Категория: TV
Количество эпизодов: 23 эп.
Продолжительность: 25 мин.
Студия:
Режиссёр: Касай Кэнъити / 笠井賢一 / カサヰケンイチ
Автор оригинала: Ниномия Томоко / 二ノ宮知子

Описание:Синъити Тиаки – невероятно одарённый скрипач, мечтающий о карьере дирижёра, но дикий страх перед самолётами (и пароходами) не даёт ему отправиться на учёбу в Европу. В музыкальной академии он звезда и мечта всех девушек (и не только), но сам Тиаки думает лишь о том, как достичь большего мастерства. Мэгуми Нода тоже прославилась – как безалаберная и ленивая студентка, не умеющая даже нормально играть по нотам. Однако есть в её игре что-то такое, что заставило придирчивого Тиаки обратить внимание на эту странную девушку…

«Нодамэ Кантабиле» – самое музыкальное аниме, влюбляющее в классику и в звучание симфонического оркестра. Основа сюжета – профессиональное развитие музыкантов, а также история одного молодого симфонического оркестра, каждая серия посвящена тому или иному произведению, композитору, особенностям исполнения, инструменту и так далее. Здесь затронуты проблемы таланта и карьеры, раскрыты многие «технические» вопросы, при этом сериал остаётся и жизненным, и смешным, в нём нашлось место драматическим и пародийным моментам. Но главное – музыка, которая способна стать смыслом жизни.
© Расселл Д. Джонс, World Art

Названия эпизодов:
1. Lesson 1
2. Lesson 2
3. Lesson 3
4. Lesson 4
5. Lesson 5
6. Lesson 6
7. Lesson 7
8. Lesson 8
9. Lesson 9
10. Lesson 10
11. Lesson 11
12. Lesson 12
13. Lesson 13
14. Lesson 14
15. Lesson 15
16. Lesson 16
17. Lesson 17
18. Lesson 18
19. Lesson 19
20. Lesson 20
21. Lesson 21
22. Lesson 22
23. Lesson 23
special



Источник рипа: DVD
Автор рипа: неизвестен
Тип видео: Без Хардсаба
Контейнер: avi
Видео: DivX 5 (6.7.0) | 23.976 fps | ~1650 kbps | 704 x 396 pixels;

Аудио:
1. RU - 2VO: | mp3 | stereo | 48 KHz | 140-175 kbps;
2. JP: mp3 | stereo | 48 KHz | 192 Kbps

Субтитры: RU - soft [Blagodir Jury & Laci][SSA, SRT]
Перевод: Елена Родионова (laci)
Озвучивание: Valkrist & Keneretta

MediaInfo: - показать
General
Complete name                            : D:\Nodame Cantabile TV-1 [1-23 of 23 + special][DVD-Rip][HWP]\Nodame_Cantabile_TV-1_[01_of_23]_Lesson_1_[DVD-Rip]_[MCA_&_AnimeReactor_RU].avi
Format                                   : AVI
Format/Info                              : Audio Video Interleave
File size                                : 272 MiB
Duration                                 : 22mn 35s
Overall bit rate mode                    : Variable
Overall bit rate                         : 1 681 Kbps
Writing application                      : VirtualDubMod 1.5.10.2 (build 2540/release)
Writing library                          : VirtualDubMod build 2540/release

Video
ID                                       : 0
Format                                   : MPEG-4 Visual
Format settings, BVOP                    : No
Format settings, QPel                    : No
Format settings, GMC                     : No warppoints
Format settings, Matrix                  : Default (H.263)
Codec ID                                 : DX50
Codec ID/Hint                            : DivX 5
Duration                                 : 22mn 35s
Bit rate                                 : 1 328 Kbps
Width                                    : 704 pixels
Height                                   : 396 pixels
Display aspect ratio                     : 16:9
Frame rate                               : 23.976 fps
Color space                              : YUV
Chroma subsampling                       : 4:2:0
Bit depth                                : 8 bits
Scan type                                : Progressive
Compression mode                         : Lossy
Bits/(Pixel*Frame)                       : 0.199
Stream size                              : 215 MiB (79%)
Writing library                          : DivX 6.7.0 (UTC 2007-09-20)

Audio #1
ID                                       : 1
Format                                   : MPEG Audio
Format version                           : Version 1
Format profile                           : Layer 3
Mode                                     : Joint stereo
Mode extension                           : MS Stereo
Codec ID                                 : 55
Codec ID/Hint                            : MP3
Duration                                 : 22mn 35s
Bit rate mode                            : Variable
Bit rate                                 : 140 Kbps
Channel(s)                               : 2 channels
Sampling rate                            : 48.0 KHz
Compression mode                         : Lossy
Stream size                              : 22.7 MiB (8%)
Alignment                                : Aligned on interleaves
Interleave, duration                     : 24 ms (0.58 video frame)
Interleave, preload duration             : 195 ms

Audio #2
ID                                       : 2
Format                                   : MPEG Audio
Format version                           : Version 1
Format profile                           : Layer 3
Codec ID                                 : 55
Codec ID/Hint                            : MP3
Duration                                 : 22mn 35s
Bit rate mode                            : Variable
Bit rate                                 : 192 Kbps
Minimum bit rate                         : 32.0 Kbps
Channel(s)                               : 2 channels
Sampling rate                            : 48.0 KHz
Compression mode                         : Lossy
Stream size                              : 31.0 MiB (11%)
Alignment                                : Aligned on interleaves
Interleave, duration                     : 24 ms (0.58 video frame)
Interleave, preload duration             : 412 ms
Writing library                          : LAME3.97

Скриншоты: - показать


Спешл:

Источник рипа: DVD-Rip
Автор рипа: Renmei Rei
Тип видео: английский полухардсаб
Контейнер: avi
Видео: XviD (Build 63) | 704 x 396 | 23.976 fps | 1 204 Kbps

Аудио:
1. RU - 2VO: mp3 | stereo | 48 KHz | 192 kbps;
2. JP: AC-3 | stereo | 48KHz | 160 Kbps;

Субтитры: RU - soft [Legenda & laci][SSA, SRT]

Перевод: Елена Родионова (laci)
Перевод: Legenda
Озвучивание: Valkrist & Keneretta

MediaInfo - показать
General
Complete name                            : D:\Nodame Cantabile TV-1 [1-23 of 23 + special][DVD-Rip][HWP]\Special\Nodame_Cantabile_TV_[special]_[ru_jp]_[Valkrist_&_Keneretta_&_AnimeReactor_Ru].avi
Format                                   : AVI
Format/Info                              : Audio Video Interleave
File size                                : 159 MiB
Duration                                 : 14mn 11s
Overall bit rate                         : 1 571 Kbps
Writing application                      : VirtualDubModRus 1.5.10.2 (build 2542/release)
Writing library                          : VirtualDubMod build 2542/release

Video
ID                                       : 0
Format                                   : MPEG-4 Visual
Format profile                           : Advanced Simple@L5
Format settings, BVOP                    : 2
Format settings, QPel                    : No
Format settings, GMC                     : No warppoints
Format settings, Matrix                  : Default (H.263)
Codec ID                                 : XVID
Codec ID/Hint                            : XviD
Duration                                 : 14mn 11s
Bit rate                                 : 1 204 Kbps
Width                                    : 704 pixels
Height                                   : 396 pixels
Display aspect ratio                     : 16:9
Frame rate                               : 23.976 fps
Color space                              : YUV
Chroma subsampling                       : 4:2:0
Bit depth                                : 8 bits
Scan type                                : Progressive
Compression mode                         : Lossy
Bits/(Pixel*Frame)                       : 0.180
Stream size                              : 122 MiB (77%)
Writing library                          : XviD 63

Audio #1
ID                                       : 1
Format                                   : MPEG Audio
Format version                           : Version 1
Format profile                           : Layer 3
Mode                                     : Joint stereo
Codec ID                                 : 55
Codec ID/Hint                            : MP3
Duration                                 : 14mn 11s
Bit rate mode                            : Constant
Bit rate                                 : 192 Kbps
Channel(s)                               : 2 channels
Sampling rate                            : 48.0 KHz
Compression mode                         : Lossy
Stream size                              : 19.5 MiB (12%)
Alignment                                : Aligned on interleaves
Interleave, duration                     : 42 ms (1.00 video frame)
Interleave, preload duration             : 504 ms
Writing library                          : LAME3.95

Audio #2
ID                                       : 2
Format                                   : AC-3
Format/Info                              : Audio Coding 3
Mode extension                           : CM (complete main)
Codec ID                                 : 2000
Duration                                 : 14mn 11s
Bit rate mode                            : Constant
Bit rate                                 : 160 Kbps
Channel(s)                               : 2 channels
Channel positions                        : Front: L R
Sampling rate                            : 48.0 KHz
Bit depth                                : 16 bits
Compression mode                         : Lossy
Stream size                              : 16.2 MiB (10%)
Alignment                                : Split accross interleaves
Interleave, duration                     : 42 ms (1.00 video frame)
Interleave, preload duration             : 500 ms
Title                                    : Original [Japanese]

Скриншоты: - показать
Дядя Шарик
Релиз от
источник
ARRU & Moscow City Animegroup - MCA & - Найдено в сети & RenmeiRei & REBUILD ARRU
А вы ничего не забыли?
наверх

Последние поступления