ARRU





Ловцы забытых голосов
Hoshi o Ou Kodomo (фильм)[BDRip][HWP]   Bookmark


Скачать
Сгенерировать линк на торрент файл
Полученный линк проживёт 1 минуту.
 магнет линк | TxT и Zip линки на безрейтинговом трекере
Тема на форуме Обсудить фильм (комментариев: 18)
ОписаниеЛовцы забытых голосов | Hoshi o Ou Kodomo (фильм)[BDRip][HWP]
Оригинальное название: Hoshi wo Ou Kodomo
Английское название: Children Who Chase Lost Voices from Deep Below
Русское название: Ловцы забытых голосов

Страна: Япония  
Год выпуска: 2011
Жанр: приключения, фэнтези, романтика

Категория: movie
Количество эпизодов: 1
Продолжительность: 116 минут
Студия: CoMix Wave Inc.
Режиссёр: Синкай Макото
Автор оригинала: Синкай Макото

Описание:
Асуна - школьница, которая очень рано потеряла отца и теперь живет с мамой. Дома большую часть времени она проводит сама, так как мама работает в госпитале на ночных сменах. В школе у нее очень хорошая успеваемость, но друзей не так уж и много. Вечера она проводит на склоне холма, слушая старое радио с помощью кристалла, который достался ей в память о папе. Однажды по дороге на холм на нее нападает огромное создание, от которого ее спасает юноша по имени Шун. Через несколько дней Асуна узнает что он погиб, и отправляется в его мир чтобы вновь встретиться со своим другом. (c)


Источник рипа: BD-Rip [Salender-Raws]
Автор рипа: Renmei Rei
Тип видео: Без хардсаба
Контейнер: AVI
Видео: XviD (Build 64) | 720 x 404 | 23,976 fps | ~1800 kbps ;

Аудио:
1. RU - VO: AC-3 | 48.0 KHz | stereo | 448 Kbps;
2. JP: AC-3 | 48.0 KHz | stereo | 448 Kbps

Субтитры: Ru - soft [SRT, SSA][Advantage] , Eng - soft [SRT, SSA][Bullet Speed Subs]
Перевод: Advantage
Озвучивание: loster01

MediaInfo: - показать
General
Complete name                            : D:\Hoshi o Ou Kodomo [movie][BDRip][HWP]\[Salender-Raws]_Hoshi_o_Ou_Kodomo_[movie]_[HWP].avi
Format                                   : AVI
Format/Info                              : Audio Video Interleave
Format profile                           : OpenDML
File size                                : 2.20 GiB
Duration                                 : 1h 55mn
Overall bit rate                         : 2 712 Kbps
Writing application                      : VirtualDubModRus 1.5.10.2 (build 2542/release)
Writing library                          : VirtualDubMod build 2542/release

Video
ID                                       : 0
Format                                   : MPEG-4 Visual
Format profile                           : Advanced Simple@L5
Format settings, BVOP                    : 2
Format settings, QPel                    : No
Format settings, GMC                     : No warppoints
Format settings, Matrix                  : Default (H.263)
Codec ID                                 : XVID
Codec ID/Hint                            : XviD
Duration                                 : 1h 55mn
Bit rate                                 : 1 798 Kbps
Width                                    : 720 pixels
Height                                   : 404 pixels
Display aspect ratio                     : 16:9
Frame rate                               : 23.976 fps
Color space                              : YUV
Chroma subsampling                       : 4:2:0
Bit depth                                : 8 bits
Scan type                                : Progressive
Compression mode                         : Lossy
Bits/(Pixel*Frame)                       : 0.258
Stream size                              : 1.46 GiB (66%)
Writing library                          : XviD 64

Audio #1
ID                                       : 1
Format                                   : AC-3
Format/Info                              : Audio Coding 3
Mode extension                           : CM (complete main)
Codec ID                                 : 2000
Duration                                 : 1h 55mn
Bit rate mode                            : Constant
Bit rate                                 : 448 Kbps
Channel(s)                               : 6 channels
Channel positions                        : Front: L C R, Side: L R, LFE
Sampling rate                            : 48.0 KHz
Bit depth                                : 16 bits
Compression mode                         : Lossy
Stream size                              : 372 MiB (17%)
Alignment                                : Split accross interleaves
Interleave, duration                     : 42 ms (1.00 video frame)
Interleave, preload duration             : 500 ms
Title                                    : Russian [loster01]

Audio #2
ID                                       : 2
Format                                   : AC-3
Format/Info                              : Audio Coding 3
Mode extension                           : CM (complete main)
Codec ID                                 : 2000
Duration                                 : 1h 55mn
Bit rate mode                            : Constant
Bit rate                                 : 448 Kbps
Channel(s)                               : 6 channels
Channel positions                        : Front: L C R, Side: L R, LFE
Sampling rate                            : 48.0 KHz
Bit depth                                : 16 bits
Compression mode                         : Lossy
Stream size                              : 372 MiB (17%)
Alignment                                : Split accross interleaves
Interleave, duration                     : 42 ms (1.00 video frame)
Interleave, preload duration             : 500 ms
Title                                    : Original [Japanese 6ch]

Скриншоты: - показать
Дядя Шарик
Релиз от
источник
ARRU & TF-AniGroup & ADVANTAGE & RenmeiRei
А вы ничего не забыли?
наверх

Последние поступления