ARRU





Jin-Roh: The Wolf Brigade
Оборотни: Волчья стая (фильм)[BD-Rip][HWP]   Bookmark


Скачать вход / регистрация
Тема на форуме Обсудить фильм (комментариев: 21)
Обсуждение раздачи (комментариев: 10)
ОписаниеJin-Roh: The Wolf Brigade | Оборотни: Волчья стая (фильм)[BD-Rip][HWP]
Оригинальное название: Jin-Roh
Английское название: Jin Roh: The Wolf Brigade
Русское название: Оборотни / Волчья стая

Страна: Япония
Год выпуска : 2000
Жанр: драма, триллер, фантастика

Категория: Movie
Количество эпизодов: 1
Продолжительность:  98 минут
Студия: Production I.G
Режиссёр: Окиура Хироюки
Автор оригинала: Осии Мамору

Описание:
Альтернативная реальность. Токио, 50-ые годы XX века. Город утопает в волнах насилия и жестокости. Подпольная организация «Секта», устраивает массовые беспорядки и терракты. Отвечая на вызов террористов, власти создают особое подразделение - «Волчий отряд», состоящий из специально подготовленных, закованных в броню, неуязвимых, безжалостных убийц. (c)

Источник рипа: BD-Rip [Байкалфинансгруп]
Автор рипа: Renmei Rei
Тип видео: Без хардсаба
Контейнер: mkv
Видео: XviD (Build 64) | 720 x 388 | 23.98fps | ~2200 kbps;

Аудио:
1. RU - MVO: AC3 | 384 kbps | 6ch | 48 kHz;
2. JP: AC3 | 6ch | 48КГц | 448kbps;

Субтитры: есть [SRT]
Перевод: MC Entertaiment
Озвучивание: Профессиональное (многоголосый, закадровый) |МС Еntertainment|

MediaInfo: - показать
General
Complete name                            : D:\Jin-Roh The Wolf Brigade [movie][BD-Rip][HWP]\Jin-Roh_The_Wolf_Brigade _[movie]_[Animereactor_ru].avi
Format                                   : AVI
Format/Info                              : Audio Video Interleave
Format profile                           : OpenDML
File size                                : 2.23 GiB
Duration                                 : 1h 41mn
Overall bit rate                         : 3 132 Kbps
Writing application                      : VirtualDubModRus 1.5.10.2 (build 2542/release)
Writing library                          : VirtualDubMod build 2542/release

Video
ID                                       : 0
Format                                   : MPEG-4 Visual
Format profile                           : Advanced Simple@L5
Format settings, BVOP                    : 2
Format settings, QPel                    : No
Format settings, GMC                     : No warppoints
Format settings, Matrix                  : Default (H.263)
Codec ID                                 : XVID
Codec ID/Hint                            : XviD
Duration                                 : 1h 41mn
Bit rate                                 : 2 282 Kbps
Width                                    : 720 pixels
Height                                   : 388 pixels
Display aspect ratio                     : 1.856
Frame rate                               : 23.976 fps
Color space                              : YUV
Chroma subsampling                       : 4:2:0
Bit depth                                : 8 bits
Scan type                                : Progressive
Compression mode                         : Lossy
Bits/(Pixel*Frame)                       : 0.341
Stream size                              : 1.63 GiB (73%)
Writing library                          : XviD 64

Audio #1
ID                                       : 1
Format                                   : AC-3
Format/Info                              : Audio Coding 3
Mode extension                           : CM (complete main)
Codec ID                                 : 2000
Duration                                 : 1h 41mn
Bit rate mode                            : Constant
Bit rate                                 : 384 Kbps
Channel(s)                               : 6 channels
Channel positions                        : Front: L C R, Side: L R, LFE
Sampling rate                            : 48.0 KHz
Bit depth                                : 16 bits
Compression mode                         : Lossy
Stream size                              : 280 MiB (12%)
Alignment                                : Split accross interleaves
Interleave, duration                     : 42 ms (1.00 video frame)
Interleave, preload duration             : 500 ms
Title                                    : Russian [MC Entertaiment 6ch]

Audio #2
ID                                       : 2
Format                                   : AC-3
Format/Info                              : Audio Coding 3
Mode extension                           : CM (complete main)
Codec ID                                 : 2000
Duration                                 : 1h 41mn
Bit rate mode                            : Constant
Bit rate                                 : 448 Kbps
Channel(s)                               : 6 channels
Channel positions                        : Front: L C R, Side: L R, LFE
Sampling rate                            : 48.0 KHz
Bit depth                                : 16 bits
Compression mode                         : Lossy
Stream size                              : 327 MiB (14%)
Alignment                                : Split accross interleaves
Interleave, duration                     : 42 ms (1.00 video frame)
Interleave, preload duration             : 500 ms
Title                                    : Original [Japanese 6ch]

Скриншоты: - показать
Дядя Шарик
Релиз от
источник
ARRU & RenmeiRei & REBUILD ARRU
А вы ничего не забыли?
наверх

Последние поступления