ARRU





Nodame Cantabile Finale TV-3
Нодамэ Кантабиле: Финал (третий сезон)[01-11 из 11][HDTV-Rip][HWP]   Bookmark


Скачать вход / регистрация
Тема на форуме Обсудить аниме (комментариев: 89)
Обсуждение раздачи (комментариев: 66)
ОписаниеNodame Cantabile Finale TV-3 | Нодамэ Кантабиле: Финал (третий сезон)[01-11 из 11][HDTV-Rip][HWP]
Оригинальное название: のだめカンタービレ フィナーレ
Английское название: Nodame Cantabile Finale
Русское название: Нодамэ Кантабиле: Финал

Страна: Япония
Год выпуска / период трансляции: 15.01.2010
Жанр: комедия, романтика, сёдзё

Категория: TV
Количество эпизодов: 11
Продолжительность: 25 мин.
Студия:
Режиссёр: Кон Тиаки
Автор оригинала: Ниномия Томоко

Описание:
После множества трудов, хлопот и треволнений судьба забрасывает главных героев в столицу мировой классической музыки. Мэгуми Нода по сравнению с первым сезоном прошла немалый путь, выросла как человек и музыкант и, наконец, поняла, что изучение теории и техники вовсе не означает утраты природной самобытности. Ее любимый, Синъити Тиаки, теперь дирижирует известным оркестром Рю Марле и одержим движением вперед. Разумеется, по молодости обоих часто заносит, и если Нодамэ подводит несобранность, то Тиаки страшится, что его кто-то обгонит в профессиональном росте, пусть даже собственная девушка.

Однако жизнь на то и дается, чтобы преодолевать все преграды на пути к цели – незрелость, предвзятость, страх, взаимное непонимание. Теперь зрителей и поклонников сериала ждет финал симфонии в трех частях, и мало кто сомневается, что Нодамэ осуществит свою мечту и все же сыграет с Тиаки в одном оркестре. А остальное обеспечит Париж – город любви!
© Hollow

Названия эпизодов:
01. Leçon 1
02. Leçon 2
03. Leçon 3
04. Leçon 4
05. Leçon 5
06. Leçon 6
07. Leçon 7
08. Leçon 8
09. Leçon 9
10. Leçon 10
11. Leçon 11


Источник рипа: HDTV-Rip
Контейнер: avi
Видео: XviD (Build 63) | 23.976 FPS | 1600 kbps | 720 x 404 pixels (by Renmei Rei)
MediaInfo - показать
General
Complete name                    : E:\HWP\Nodame Cantabile Finale TV-3 [01-11 из 11] HWP\Nodame_Cantabile_Finale_TV_[01_of_11]_[ru_jp]_[mca_lab_ru_&_AnimeReactor_Ru].avi
Format                           : AVI
Format/Info                      : Audio Video Interleave
File size                        : 336 MiB
Duration                         : 22mn 54s
Overall bit rate                 : 2 051 Kbps
Writing application              : VirtualDubModRus 1.5.10.2 (build 2542/release)
Writing library                  : VirtualDubMod build 2542/release

Video
ID                               : 0
Format                           : MPEG-4 Visual
Format profile                   : Advanced Simple@L5
Format settings, BVOP            : 2
Format settings, QPel            : No
Format settings, GMC             : No warppoints
Format settings, Matrix          : Default (H.263)
Codec ID                         : XVID
Codec ID/Hint                    : XviD
Duration                         : 22mn 54s
Bit rate                         : 1 589 Kbps
Width                            : 720 pixels
Height                           : 404 pixels
Display aspect ratio             : 16:9
Frame rate                       : 23.976 fps
Color space                      : YUV
Chroma subsampling               : 4:2:0
Bit depth                        : 8 bits
Scan type                        : Progressive
Compression mode                 : Lossy
Bits/(Pixel*Frame)               : 0.228
Stream size                      : 260 MiB (77%)
Writing library                  : XviD 63

Audio #1
ID                               : 1
Format                           : AC-3
Format/Info                      : Audio Coding 3
Mode extension                   : CM (complete main)
Codec ID                         : 2000
Duration                         : 22mn 54s
Bit rate mode                    : Constant
Bit rate                         : 192 Kbps
Channel(s)                       : 2 channels
Channel positions                : Front: L R
Sampling rate                    : 48.0 KHz
Bit depth                        : 16 bits
Compression mode                 : Lossy
Stream size                      : 31.5 MiB (9%)
Alignment                        : Split accross interleaves
Interleave, duration             : 42 ms (1.00 video frame)
Interleave, preload duration     : 500 ms
Title                            : Russian [MCA-Lab]

Audio #2
ID                               : 2
Format                           : AC-3
Format/Info                      : Audio Coding 3
Mode extension                   : CM (complete main)
Codec ID                         : 2000
Duration                         : 22mn 54s
Bit rate mode                    : Constant
Bit rate                         : 256 Kbps
Channel(s)                       : 2 channels
Channel positions                : Front: L R
Sampling rate                    : 48.0 KHz
Bit depth                        : 16 bits
Compression mode                 : Lossy
Stream size                      : 42.0 MiB (12%)
Alignment                        : Split accross interleaves
Interleave, duration             : 42 ms (1.00 video frame)
Interleave, preload duration     : 500 ms
Title                            : Original [Japanese]



Аудио:
1. RU - MVO | AC-3 | stereo | 48 KHz | 192 kbps;
2. JP - AC-3 | stereo | 48KHz | 256 kbps
Субтитры: Есть [SRT, SSA]


Перевод: [DreamersTeam]
Озвучивание: Valkrist & Keneretta



Скриншоты: - показать
Дядя Шарик
Релиз от
источник
ARRU & Moscow City Animegroup - MCA & RenmeiRei
А вы ничего не забыли?
наверх

Последние поступления